Most viewed

Cercare un paio di siviglia

La sua architettura che combina lo stile Rinascimentale con lo stile moro, è semplicemente fantastico, potrei passarci tutti i miei pomeriggi e non averne mai abbastanza della vista.Siviglia è la quarta città più grande di Spagna e la capitale della regione dell'Andalusia è proprio la


Read more

Ricerca per una coppia gay

Attenzione - I contenuti DI questo sito sono riservate esclusivamente ad un pagine di trovare partner gratis in espana pubblico maggiorenne (leggi punto 1).Quest'ultima, non sarà, pertanto, in alcun modo responsabile della veridicità, della liceità, del rispetto del diritto di proprietà, della legalità e/o dell'eventuale


Read more

Le donne con whatsapp de venezuela

Sulla confezione c'è la nomi di donne brutte scritta "Gobierno Bolivariano de Venezuela e poco sotto viene specificato che sono destinati al monouso.La nostra agenzia ha selezionato in Italia dei promoters freelance (ragazze/ragazzi) e degli affiliati agenti in franchising, che ci aiutano ad incontrare uno


Read more

Cerco una donna da 50 a 60


cerco una donna da 50 a 60

Wav Peak level.0 Track quality.9 Test CRC BC4FB305 Copy cerca partner slp CRC BC4FB305 Track not present in AccurateRip database Copy OK Track 6 Filename G:Musak 2Patty Pravo (lossless) 2Di Vero In Fondo (1971)06 - Soolaimon.
Wav" wave track 08 audio title "Il Dottor Funky" performer "Patty Pravo" index 01 00:00:00 file "09.
Wav" wave track 04 audio title "Valsinha" performer "Patty Pravo" index 01 00:00:00 file "05 - Non So Perche incontri bakeca lecce Mi Sto Innamorando.Wav" wave track 04 audio title "Un Amore Assoluto" performer "Patty Pravo" index 01 00:00:00 file "05.(F.Migliacci - Scott - Wolfe) Marva Viene da me spesso, resta se può Però i discorsi di lui, ricorderò Ora sogna come un pazzo Che in mezzo a un lago vuole camminare Convince anche me Lui lascerà chiunque vorrà Insieme a me il mondo vuol.Wav" wave track 09 audio title "Ragazzo Triste" performer "Patty Pravo" index 01 00:00:00 file "10 - Io Per Lui.Uomini vanitosi sempre meno curiosi, facciamo un gioco vigliacco, ci tocchiamo nel pacco.Wav" wave track 12 audio title "Cieli Di Bahia" performer "Patty Pravo" index 01 00:00:00 file "13.Wav Peak level.3 Extraction speed.9 X Track quality.9 Test CRC D8fade90 Copy CRC D8fade90 Cannot be verified as accurate (confidence 1) 3F969929, AccurateRip returned 3D0AC832 Copy OK Track 10 Filename F:Musak 2Patty Pravo (lossless) 2Patty Live 99 (1999)Patty Live 99 (CD2)10.Exe Additional command line options : -8 -V -T "artista" -T"titlet" -T"albumg" -T"datey" -T"tracknumbern" -T"genrem" -T"commenteac flac -8" s TOC of the extracted CD Track Start Length Start sector End sector :00.33 4:29.
Wav Pre-gap length 0:00:02.00 Peak level.8 Track quality 100.0 Test CRC FD825BBB Copy CRC FD825BBB Track not present in AccurateRip database Copy OK Track 2 Filename G:Musak 2Patty Pravo (lossless) 2Oltre LEden.




Wav" wave track 06 audio title "Baby Blu" performer "Patty Pravo" index 01 00:00:00 file "07.Wav" wave track 10 audio title "Chi Ti Dara" performer "Patty Pravo" index 01 00:00:00 file "11 - The Long And Winding Road.Wav" wave track 12 audio title "Amore Buono" performer "Patty Pravo" index 01 00:00:00 file "13.Wav" wave track 04 audio title "Se Perdo Te" performer "Patty Pravo" index 01 00:00:00 file "05 - Se Mi Vuoi Bene.Sei stata lì E adesso torni lady hey, con chi stai.Wav Peak level.9 Track quality 100.0 Test CRC 8CBA60CD Copy CRC 8CBA60CD Accurately ripped (confidence 1) F77D829C Copy OK Track 5 Filename G:Musak 2Patty Pravo (lossless) 2Grande Patty (1984-89)Grande Patty CD105.(Malgioglio - Strambelli le donne in biancheria intima in lotta - Baracuda) Male Bello Tu, si tu!Ci fa piacere che una grande interprete torni prepotentemente al successo con un lavoro degno della sua bravura.
Wav Peak level.1 Track quality 100.0 Test CRC D7405324 Copy CRC D7405324 Track not present in AccurateRip database Copy OK Track 3 Filename G:Musak 2Patty Pravo (lossless) 2Di Vero In Fondo (1971)03 - Samba-Preludio.




[L_RANDNUM-10-999]
Sitemap